X265 Bit Depth

264 encoder; We strongly recommend users, distributors, and system integrators to upgrade unless they use current git master. High Efficiency Video Coding (HEVC), also known as H. Hi, I managed to succesfully build multi-bit depth x265 using ur build script, x265 [info]: HEVC encoder version 2. Supported by most Web browsers with a small Javascript decoder (gzipped size: 56 KB). /* x264_bit_depth: * Specifies the number of bits per pixel that x264 uses. (alternatively finding a superfast (more than 90fps) codec/param for doing my encoding in a second step on ffmpeg, but it's a bit stupid) Image quality of libx265 10bit (for 8bit display and 8bit video source) is WAY BETTER than x265 8bit. 6 GB | Posted on January 22, 2021 January 22, 2021 by DB9 814 Views Release Info Aug 09, 2020 · [kmplx] 009 RE. (I think the bitdepth should be specified regardless anyway. At torrent or any other torrent from the Video HD - Movies. /ffmpeg -i /tmp/tools/file_example. GitHub repository. Part 3: Diving in deep. On Monday, August 2, 2021, Andrew Randrianasulu wrote:. Please watch before rating or commenting on quality. Fully self-contained, *no* additional Codecs or Plugins are required. BPG (Better Portable Graphics) is a new image format. Now, if I hadn't hardcoded the dithering for the 10-bit encode and instead passed a high-bit-depth picture to x264, it would've resulted in. 0 ('Shining Star') 64-bit. HOW TO: 10-bit x264 and 10/12-bit x265 encodes with HandBrake! (Mac OS X, Linux, Windows) By Matt Gadient | February 15, 2016. 976 (24000/1001) FPS Color space : YUV Chroma subsampling : 4:2:0 Bit depth : 10 bits Bits/(Pixel*Frame) : 0. 265 standard was officially published. 1 HDR x265 10bit-CHD Apollo 13 1995 2160p UHD BluRay REMUX HDR HEVC DTS-X-SiCaRio Apollo 13 1995 2160p UHD BluRay x265-DEPTH. 0][64 bit] 8bit+10bit+12bit. 5, mostly a result of the completion of weightp and b-pyramid. Both outputs are 1280x720. 709 Transfer characteristics : BT. Press Configure Another property called MAIN12 will probably get highlighted in red. Haven't experimented too much with 12. Problematic file info: 4:2:0 Bit depth : 8 bits Writing library : x265 1. ) Use an x265 binary that does only 10 bit. Quality: 1080p Bluray: Size: 3. This patch fixes segmentation fault and incorrect edge computation due to bit depth mismatch between source input and x265 builds encountered using hist-scene cut option. Just change “Color Space” option from default I420 to I420 10-bit or I444 10-bit and you are ready. 0 KaNNa) Jujutsu Kaisen Season 1 in 1080p, encoded with x265 in HEVC and AAC 2. - Enable shared 10/12 bit libraries on 64 bit architectures. 053 Stream size : 2. 976 (24000/1001) FPS. We recently got our hands on a pre-alpha build of. There were large improvements in compression efficiency since 0. Fix: Segmentation fault for hist-scenecut option in 16bpp builds. In comparison to AVC, HEVC offers from 25% to 50% better data compression at the same level of video quality, or substantially improved video quality at the. 8+38-fe65544b6c40:[Windows][GCC 4. To support this both libraries must be available either as shared libraries or as a pair of static libraries. can a 4k x265 HEVC 10bit MKV file be converted to an 8bit MP4 successfully? jjrjr1 November 24, 2016, 6:42pm. In fact, I screen-capped both workloads in action and consistently saw x265 pegging our Haswell-based test mule at 100% utilization, while x264 bounced around quite a bit more. x265 8-Bit AAC Multi-Subs [1080p Batch] Anime keyboard_arrow_right Live Action - English-translat Seeders 6. 0][64 bit] 8bit+10bit+12bit. Now, you can use a higher bit depth for video encoding, and x264 currently allows up to 10 bits per. Low values for h like 0. 10-bit/12-bit is the color depth of the encoded video. Writing library : x265 3. Overall bit rate : 4 423 kb/s. Bit depth : 8 bits Bits/(Pixel*Frame) : 0. While x265 does the outlines and the steam part quite like in the original frame, x264 rips the outlines apart a bit too much, and slight block artifacts can again be seen for the steam part. Just change “Color Space” option from default I420 to I420 10-bit or I444 10-bit and you are ready. You need to use x265 as nvenc does not support 12 bit. from https://encoder. The second aspect about how BT. Encoded in 10 bit color at CRF 21. We recently got our hands on a pre-alpha build of. A few 8/10/12-bit libraries (and in some cases, binaries) that I put together for. 1 - ArcX) [TAoE]. Frame rate : 23. Facebook: https://www. forceQp - startFrameQp are fed from a qp-file (like in x264), specified by '--qpfile'. 10bit remove posterisation, it’s a revolution, it’s important to export all your projects in 10bit. 976 (24000/1001) FPS Color space : YUV Chroma subsampling : 4:2:0 Bit depth : 10 bits Bits/(Pixel*Frame) : 0. 10-bit colors, a concept called ‘color depth’ is outlined as follows. The thing is, MKVToolNix GUI v20. Bit/(pixel*frame) : 0. 0][64 bit] 8bit+10bit+12bit Default : Yes Forced : No Color range : Limited Color primaries : BT. I agree with Daniel that this is the best solution - if you want a higher bit depth, it's easily selectable. Movie name : Rick and Morty (2013) S02E01 - A Rickle in Time (1080p BDRip x265 10bit EAC3 5. Then you don't need to change the command. Both outputs are 1280x720. args-append -DHIGH_BIT_DEPTH=ON. 053 Stream size : 2. Voyagers (2021) 2. March 16th, 2016, Google Summer of Code. 1) Traditional HD Blu Ray x264 encodes have a native bit depth of 8 bits (24 bits per pixel) 2) x265 10 bit encodes of 8 bit sources have value because they (a) can produce a smaller output file and (b) reduce banding because high-bandwidth differing is not needed to simulate colours beyond 8 bits (which seems to imply this is what the source x264 material does). 4 x265 [info]: build info [Linux][GCC 7. Files are much smaller than JPEG for similar quality. 2 Just got curious of this x265 HEVC format, and tried it on a 1920x1080i BDMV stream video, one encoded with 8bit depth and then another encoded with 12bit depth. Bit depth : 10 bits Bits/(Pixel*Frame) : 0. 264 High 10 Profile (10-bit color depth) encoding since quite a long time ago. Video Bit Depth: 8 it does state 8bit. On Debian, even if the library claims to support 10 and 12 bits, x265_max_bit_depth is 8 when used from Avidemux so that requesting internalBitDepth = 10 just results in a failure to create an encoder instance. When these filters are enabled, HandBrake's pipeline will run at 8-bit rather than 10-bit or 12-bit. GitHub repository. Low values for h like 0. 40:1 Frame rate mode : Constant Frame rate : 23. 0) built on Sep 6 2016, gcc: 6. Added native 10-bit pixel depth support; Added color space options yuv420p10, yuv422p10, yuv444p10;. In the case of h264 10 bit is generally higher quality than 8 bit with the same file size, because it can be compressed stronger before getting noticeable banding (even though the source and display are both 8 bit). The crucial option here is: -pix_fmt yuv420p. Encode: Our. Frame rate : 23. Any questions, or help playing this file, click on the HEVC banner just above. If the requested bit depth is not the bit depth of the linked libx265, it will attempt to bind libx265_main for an 8bit encoder, libx265_main10 for a 10bit encoder, or libx265_main12 for a 12bit encoder, with the same API version as the linked libx265. 10-bit/12-bit HEVC to 10-bit H. Apr 5 2020. Press Configure Another property called MAIN12 will probably get highlighted in red. x265 is offered under either version 2 of the GNU General Public License (GPL) or a commercial license, similar to the x264 project. Anchorman: The Legend of Ron Burgundy. 2][64 bit] 10bit. To support this both libraries must be available either as shared libraries or as a pair of static libraries. Bit depth : 10 bits Bits/(Pixel*Frame) : 0. By Chris Angelini July 23, 2013. 148 to libx264_main10. x265 is the HEVC encoder of choice for many leading video encoder manufacturers and video system operators, providing higher visual quality at any desired bit rate than competing H. Overall bit rate : 5 884 kb/s Movie name : The Orville S01E01 Old Wounds 1080p AMZN WEBrip x265 DDP5. 976fps) 19:14:38. Their quiet life together is shattered when a group of criminals kidnap the girl, forcing the Blind Man to leave his safe haven to save her. 10-bit colors, a concept called ‘color depth’ is outlined as follows. I used to take VideoProc to convert some HEVC iPhone recordings to H. Hi, I managed to succesfully build multi-bit depth x265 using ur build script, x265 [info]: HEVC encoder version 2. Solution here is to try latet version first, if it did not work, try older version, say try 1 month old version, if that did not work, go back 2 months, see if that works. The default bitdepth will now be 8bit, with 10 and 12 bit optional on the x265 command line. 5 comments. Current systems use 8 bits per color, resulting in 28=256 different shades for each primary color (red, green and blue, respectively). The crucial option here is: -pix_fmt yuv420p. Re: [Cin] Test rendering whit x265. Last month, the HEVC/H. 976 (24000/1001) FPS. 220: [vo/lavc] Opening encoder. 4G/5Ghz BT Wifi TV BOX Youtube 3D Media Player Set Top Box. Bit depth : 10 bits Title : Genmu Senki Leda (Japanese Bluray) Writing library : x265 3. If this value is > 8, x264 will read * two bytes of input data for each pixel sample, and expect the upper * (16-x264_bit_depth) bits to be zero. mp4 -map 0 -map 0 -map 0 -map 0 -c:v libx265 -f dash \ -b:v:0 25M -b. x265 HEVC 10-Bit (color depth) encoded files - FAIL. Holiday 2014 Hindi 1080p Bluray x265 HEVC DTSHon3y. Bit depth : 8 bits Bits/(Pixel*Frame) : 0. Every jump in bit depth is a dramatic change in data, so while a 10-bit video may not yet be as good as a raw still, going from 8-bit to 10-bit is huge. My build has Supported pixel formats: yuv420p yuv422p yuv444p gbrp yuv420p10le yuv422p10le yuv444p10le gbrp10le yuv420p12le yuv422p12le yuv444p12le gbrp12le gray gray10le gray12le. 053 Stream size : 2. Its main advantages are: High compression ratio. x265 will accept input pixels of any depth between 8 and 16 bits regardless of the depth of its internal pixels (8 or 10). Add the -preset option if you want to adjust encoding speed. 709 Transfer characteristics : BT. x265 is offered under either version 2 of the GNU General Public License (GPL) or a commercial license, similar to the x264 project. 5× for 12-bit profiles and 2× for 16-bit profiles. Clearly the device is capable of 10-Bit color if. There were large improvements in compression efficiency since 0. - Enable shared 10/12 bit libraries on 64 bit architectures. The output file demonstrated a successful conversion to 8bit: If you can try and avoid re-encoding in this manner though, better to. 2+5-gfbe9fef31:[Windows][GCC 9. Movie name : Rick and Morty (2013) S02E01 - A Rickle in Time (1080p BDRip x265 10bit EAC3 5. At both CRF 24 and CRF 22, even the lowest frames don't dip below SSIM 0. High Efficiency Video Coding (HEVC), also known as H. The average case displayed an average size of 59% which is more in-line with expectations and is mostly stable around the commonly-used CRF ranges. So one could have any combo of depths depending on what libs are built and installed. Now this is an apples to oranges comparison. $ x264 --version x264 0. (alternatively finding a superfast (more than 90fps) codec/param for doing my encoding in a second step on ffmpeg, but it’s a bit stupid) Image quality of libx265 10bit (for 8bit display and 8bit video source) is WAY BETTER than x265 8bit. x265 supports the Main, Main 10, Main 12 and Main Still Picture profiles of HEVC (including intra-only profiles), utilizing a bit depth of either 8 bits or 10 bits per sample YCbCr with 4:2:0, 4:2:2 or 4:4:4 chroma subsampling. * Mon Mar 20 2017 RPM Fusion Release Engineering - 2. If you want 8, 10, and 12, then you build the lib three times and make three shared lib files. For example, a 16x16 CU will only use the references used to code its four 8x8 CUs. 1 - ArcX) [TAoE]. Add the -preset option if you want to adjust encoding speed. Size: 11 GB, Files: 34, Age: 2 years. Added level list on x265 tab; x265 3. ffmpeg -i input. If the requested bit depth is not the bit depth of the linked libx265, it will attempt to bind libx265_main for an 8bit encoder, libx265_main10 for a 10bit encoder, or libx265_main12 for a 12bit encoder, with the same API version as the linked libx265. Bit depth : 8 bits Bits/(Pixel*Frame) : 0. Still, we get a good idea of where these show up. HOW TO: 10-bit x264 and 10/12-bit x265 encodes with HandBrake! (Mac OS X, Linux, Windows) By Matt Gadient | February 15, 2016. In comparison to AVC, HEVC offers from 25% to 50% better data compression at the same level of video quality, or substantially improved video quality at the. I noticed there somehow weren't many high quality 1080p x265 encodes of this so I made one. Movie info: The Blind Man has been hiding out for several years in an isolated cabin and has taken in and raised a young girl orphaned from a devastating house fire. Color depth is also known as bit depth, and is the number of bits used to display the color of a single pixel. Simple x264 Launcher 3. 026 Stream size : 453 MiB (70%) Title : Encoded by HashMiner!. When these filters are enabled, HandBrake's pipeline will run at 8-bit rather than 10-bit or 12-bit. 976 (24000/1001) FPS. Add the -preset option if you want to adjust encoding speed. The King of Staten Island (2020) in 1080p, encoded with x265 in HEVC and AAC 7. Bits/ (Pixel*Frame) : 0. 5+1-f0c1022b6:[Windows][GCC 10. x265 can encode 10 bit from 8 bit source so it can be used even with vanilla VirtualDub. In the case of h264 10 bit is generally higher quality than 8 bit with the same file size, because it can be compressed stronger before getting noticeable banding (even though the source and display are both 8 bit). Holiday 2014 Hindi 1080p Bluray x265 HEVC DTSHon3y. Just to be sure I tried linking the old library libx26410bit. If the input isn't already 10-bit, you have to first convert it, usually using -pix_fmt. 264/AVC (x264) and H. 6 GB | Posted on January 22, 2021 January 22, 2021 by DB9 814 Views Release Info Aug 09, 2020 · [kmplx] 009 RE. 5:[Linux][GCC 7. Part 3: Diving in deep. Esto es la cantidad de información de colores que c. asm: avx2 code for high_bit_depth psyCost_pp_4x4, reduced 400c->250c draft: fix issue #143 x265 is slow when it is build with GCC 5. 265 and MPEG-H Part 2, is a video compression standard designed as part of the MPEG-H project as a successor to the widely used Advanced Video Coding (AVC, H. Bit/(pixel*frame) : 0. The CRF videos were done via Handbrake using x265 10-bit, whereas everything else was done via ffmpeg using x265 or x264 8-bit. 265 encoders. The output file demonstrated a successful conversion to 8bit: If you can try and avoid re-encoding in this manner though, better to. PSA User Rating. Facebook: https://www. I noticed there somehow weren't many high quality 1080p x265 encodes of this so I made one. avs4x26x - AviSynth to x265,x264, and x262 piping tool; continued development of avs4x264mod. txt file as well, perhaps you know if they are valuable enough to include. Bit/(pixel*frame) : 0. When set to X265_REF_LIMIT_DEPTH (1) x265 will limit the references analyzed at the. A crew of astronauts on a multi-generational mission descend into paranoia and madness, not knowing what is real or not. - Enable shared 10/12 bit libraries on 64 bit architectures. Then you don't need to change the command. Bit depth : 10 bits Bits/(Pixel*Frame) : 0. Bit depth : 10 bits Default : Yes Forced : No Audio Format : AAC Format/Info : HE-AAC Channel(s) : 6 Channels Language : English Default : Yes Forced : No Text Format : UTF-8 Language : English Default : Yes Forced : No Text Format : UTF-8 Language : Arabic Default : No Forced : No Text Format : UTF-8 Language : Czech Default : No Forced : No Text. Bit depth : 10 bits Title : Genmu Senki Leda (Japanese Bluray) Writing library : x265 3. x265 8-Bit AAC Multi-Subs [1080p Batch] Anime keyboard_arrow_right Live Action - English-translat Seeders 6. However, due to the lack of good and free decoder and player for this profile, I haven’t seriously test with it until today. 10-bit depth support in native utvideo decoder; libutvideo wrapper removed; YUY2 Lossless Codec decoder; VideoToolbox H. 10bit remove posterisation, it's a revolution, it's important to export all your projects in 10bit. [x265,190,of,307] x86: AVX512 interp_8tap_vert_sp_32xN for high bit depth: 2018-04-07: [email protected] Driver Windows 10 32 bit Windows 10 64 bit Windows 8. BPG (Better Portable Graphics) is a new image format. x265 HEVC 8-Bit (color depth) encoded files - PASS. 0][64 bit] 10bit. Every jump in bit depth is a dramatic change in data, so while a 10-bit video may not yet be as good as a raw still, going from 8-bit to 10-bit is huge. 976fps) 19:14:38. For me, it’s the EASIEST and FAST EVER tool. 0][64 bit] 10bit. 1 English, with subtitles! Encoded using the time consuming 2 pass, 10 bit color at 5250 kbps, from a Blu-ray source, for the highest quality possible. x265 can encode 10 bit from 8 bit source so it can be used even with vanilla VirtualDub. 0][64 bit] 8bit+10bit+12bit Default : Yes Forced : No Color range : Limited Color primaries : BT. Anchorman (2004) 1080p Bluray 10-bit x265 HEVC DTS 5. There is no hardware support for 12 bit outside of PC, so any other devices you attempt to play your encodes on will use software rendering, which will typically bring them to their knees. Next-Gen Video Encoding: x265 Tackles HEVC/H. Last month, the HEVC/H. 4K and 3D formats are also available. Clearly the device is capable of 10-Bit color if it can handle it in x264. 0 ('Shining Star') 64-bit. 0] Format: Matroska. Currently, all HDR content is 10-bit, with black mapped at the 64 value, middle gray at 512 and peak luminance at 940/960. 10-bit/12-bit is the color depth of the encoded video. Add the -preset option if you want to adjust encoding speed. (I think the bitdepth should be specified regardless anyway. 264/AVC (x264) and H. On Monday, August 2, 2021, Andrew Randrianasulu wrote:. In the encoder window, go into options, Basic, and bit depth. If you want 8, 10, and 12, then you build the lib three times and make three shared lib files. 3+17-6e348252e902 x265 [info]: build info [Windows][GCC 6. Title: Invader ZIM (2001) Complete + Extras (480p DVD x265 HEVC 10bit AAC 2 0 ImE) [QxR] Category: TV > SD/X264/H264 Language: English Total Size: 6. 5+10+13-7c9bc0cb14:[Windows][GCC 10. 1) Traditional HD Blu Ray x264 encodes have a native bit depth of 8 bits (24 bits per pixel) 2) x265 10 bit encodes of 8 bit sources have value because they (a) can produce a smaller output file and (b) reduce banding because high-bandwidth differing is not needed to simulate colours beyond 8 bits (which seems to imply this is what the source x264 material does). Holiday 2014 Hindi 1080p Bluray x265 HEVC DTSHon3y. On 8-bit concent (Sintel), enc-mode 4 is 32% faster than libvpx and 4% slower than x265. There were large improvements in compression efficiency since 0. [email protected] Codec ID : V_MPEGH/ISO/HEVC Width : 1 280 pixels Height : 720 pixels Display aspect ratio. 100 Video ID : 1 Format : HEVC Format/Info : High Efficiency Video Coding Format profile : [email protected] Apr 5 2020. 265 and MPEG-H Part 2, is a video compression standard designed as part of the MPEG-H project as a successor to the widely used Advanced Video Coding (AVC, H. Encode: Our. Clearly the device is capable of 10-Bit color if it can handle it in x264. Encoded in 10 bit color at CRF 21. x265 can encode 10 bit from 8 bit source so it can be used even with vanilla VirtualDub. 5Mbit, x265 nearly reaches quality transparency when compared to the original, something x264 falls short of, just a bit. On Tuesday, August 3, 2021, Andrew Randrianasulu wrote:. Dangal 2016 (BluRay 1080p x265 10bit 7. x265 RC (Rate Control) supports the following modes: constant quantizer - specified by '--qp'. If you are looking for a desktop x265 video converter for Windows or Mac, try VideoProc x265 converter. On 8-bit concent (Sintel), enc-mode 4 is 32% faster than libvpx and 4% slower than x265. mp4 -map 0 -map 0 -map 0 -map 0 -c:v libx265 -f dash \ -b:v:0 25M -b. Encode: Our. In comparison to AVC, HEVC offers from 25% to 50% better data compression at the same level of video quality, or substantially improved video quality at the. March 16th, 2016, Google Summer of Code. 52 has improved 10-bit color depth encoding. 976 (24000/1001) FPS Color space : YUV Chroma subsampling : 4:2:0 Bit depth : 10 bits Bits/(Pixel*Frame) : 0. /ffmpeg -i /tmp/tools/file_example. 60 GB: Show Files Bit depth : 24 bits Compression mode : Lossy. 0] Format: Matroska. x265-DEPTH Encodes in the resolution 1080p from retail (BluRay, HDDVD) sources, with one or more English audio tracks only. For large uploads, we recommend using the API. from https://encoder. [email protected] Codec ID : V_MPEGH/ISO/HEVC Width : 1 280 pixels Height : 720 pixels Display aspect ratio. I encoded a 720p video clip in Hi10P at 1Mbps (really low for HD content) and played the encoded content with VLC. 108 Dimensione della traccia : 7,59 GiB (95%) Compressore : x265 3. x265 supports the Main, Main 10, Main 12 and Main Still Picture profiles of HEVC (including intra-only profiles), utilizing a bit depth of either 8 bits or 10 bits per sample YCbCr with 4:2:0, 4:2:2 or 4:4:4 chroma subsampling. The default bitdepth will now be 8bit, with 10 and 12 bit optional on the x265 command line. Andrew Randrianasulu via Cin Mon, 02 Aug 2021 14:29:46 -0700. The reason HDR standards are 10-bit or higher is because the additional values are needed to prevent the banding which would occur if 8-bit depth was used with an HDR gamma curve. If downshifting is being performed using our CLI application (to 8 bits), the --dither option may be enabled to reduce banding. 5, mostly a result of the completion of weightp and b-pyramid. ) Use an x265 binary that does only 10 bit. Its main advantages are: High compression ratio. Overall bit rate : 27. This download is licensed as freeware for the Windows (32-bit and 64-bit) operating system on a laptop or desktop PC from media converter software without restrictions. For chroma sampling the maximum bit rate increases by 1. 1+1-b5c86a64bbbe:[Windows][GCC 9. There is also a large amount of new assembly code; replacing most of the compiler intrinsic functions and adding coverage for some new primitives. 265 standard was officially published. Bit depth : 8 bits Bits/(Pixel*Frame) : 0. ffmpeg -i input. Dangal 2016 (BluRay 1080p x265 10bit 7. /* x264_bit_depth: * Specifies the number of bits per pixel that x264 uses. 1 - ArcX) [TAoE]. Both outputs are 1280x720. See full list on leavcom. Direct download via magnet link. 6 GB | Posted on January 22, 2021 January 22, 2021 by DB9 814 Views Release Info Aug 09, 2020 · [kmplx] 009 RE. x265 is offered under either version 2 of the GNU General Public License (GPL) or a commercial license, similar to the x264 project. 1 English, with subtitles! Encoded using the time consuming 2 pass, 10 bit color at 4250 kbps, from a Blu-ray source, for the highest quality possible. x265 is available under the open source GNU GPL v2 license, providing many benefits over competing proprietary encoders. File size : 673 MB. Hi, x264 and x265 performance are perfect (8 bit | 10bit. Press Configure Another property called MAIN12 will probably get highlighted in red. forceQp - startFrameQp are fed from a qp-file (like in x264), specified by '--qpfile'. The reason HDR standards are 10-bit or higher is because the additional values are needed to prevent the banding which would occur if 8-bit depth was used with an HDR gamma curve. If yes, there is how I rip Bluray DVD to 10-bit AND 12-bit MP4 MKV M2TS H264 or H265. 6 is a regularly scheduled release. Fix: Segmentation fault for hist-scenecut option in 16bpp builds. High Efficiency Video Coding (HEVC), also known as H. 3 with 10 bit or High Bit Depth, however IFME use force 8 bit encoding, because High Bit Depth not yet fully optimized for performance, however this can adjust by enable "Use auto detect" or forced 10 bit (will cause 8 bit input will encode into 10 bit). Pick x265 as you encoder. Former wrestler Mahavir Singh Phogat (Aamir Khan) trains young daughters Geeta (Fatima Sana Shaikh) and Babita (Sanya Malhotra) to follow in his footsteps and become world-class grapplers. - Clean up SPEC file a bit (formatting, 80 char wide descriptions). 1 English, with subtitles! Encoded using the time consuming 2 pass, 10 bit color at 5250 kbps, from a Blu-ray source, for the highest quality possible. PSA User Rating. A crew of astronauts on a multi-generational mission descend into paranoia and madness, not knowing what is real or not. The number of bits used to represent each color determines the range of shades one can generate. Unique ID: 240595290391777705168743015960765771869 File: The Sentinel - S01E01 - The Switchman - [DVD][x265 10-bit][AAC 2. Bit depth : 10 bits Bits/(Pixel*Frame) : 0. If the input isn't already 10-bit, you have to first convert it, usually using -pix_fmt. 6 is a regularly scheduled release. 264, or MPEG-4 Part 10). 5× for 4:2:2 profiles and 2× for 4:4:4 profiles. Andrew Randrianasulu via Cin Mon, 02 Aug 2021 14:29:46 -0700. 0][64 bit] 8bit+10bit+12bit x265 [info]: using cpu capabilities: MMX2 SSE2Fast SSSE3 SSE4. (I think the bitdepth should be specified regardless anyway. Bit rate : 14. (alternatively finding a superfast (more than 90fps) codec/param for doing my encoding in a second step on ffmpeg, but it's a bit stupid) Image quality of libx265 10bit (for 8bit display and 8bit video source) is WAY BETTER than x265 8bit. x265 will accept input pixels of any depth between 8 and 16 bits regardless of the depth of its internal pixels (8 or 10). Optionally the "high bit-depth" encoder variants can be selected. Download "Money Heist S05 Part 1 ENG-HINDI 1080p NF 10bit DDP 5 1 x265 [HashMiner]" Report Torrent; Title: Money Heist S05 Part 1 ENG-HINDI 1080p NF 10bit DDP 5 1 x265 [HashMiner] Category: TV > TV Packs Language: English Total Size: Bit depth : 10 bits Bits/(Pixel*Frame) : 0. 6GB) Greetz iJP, roy, Kiiroi, no5tyle & WalkerServers! For great seedboxes, check out WalkerServers Notes: Encoded with x265 8-bit Audio is 640k English AC3 Contains soft text-based english subs Screens:. com Baby Driver (2017) 1080p Bluray 10-bit x265 HEVC DTS 5. To support this both libraries must be available either as shared libraries or as a pair of static libraries. There are a few more options in the CMakeLists. Low values for h like 0. Download The. x265 will accept input pixels of any depth between 8 and 16 bits regardless of the depth of its internal pixels (8 or 10). -map 0 will include all streams (default stream selection only selects 1 stream per type). 2+5-gfbe9fef31:[Windows][GCC 9. Applications like ffmpeg and the x265 CLI which use our bit-depth introspection API (x265_api_get) instead of the globally exported C interface can select between 8 and 10bit libx265 libraries at runtime. If the input isn't already 10-bit, you have to first convert it, usually using -pix_fmt. Encode: Our. 048 Stream size : 1. x265 source code is written in C++ and assembly. Current systems use 8 bits per color, resulting in 28=256 different shades for each primary color (red, green and blue, respectively). While x265 does the outlines and the steam part quite like in the original frame, x264 rips the outlines apart a bit too much, and slight block artifacts can again be seen for the steam part. x265 is a library to encode videos into the High Efficiency Video Coding (HEVC/H. There is no hardware support for 12 bit outside of PC, so any other devices you attempt to play your encodes on will use software rendering, which will typically bring them to their knees. At both CRF 24 and CRF 22, even the lowest frames don’t dip below SSIM 0. Fully self-contained, *no* additional Codecs or Plugins are required. - Video parameters: Bit depth: 10. Optionally the "high bit-depth" encoder variants can be selected. This section does not include animated or TV/documentary films, it does however include black & white movies. Encoded in 10 bit color at CRF 21. x265-POIASD. MKVToolNix omits x265 Video Stream Importation Hello, I came across some MP4 files that my TV doesn't want to play, so I thought of converting them to MKV to try them again. Added level list on x265 tab; x265 3. To support this both libraries must be available either as shared libraries or as a pair of static libraries. Fringe Season 1, in 1080p in x265 aka HEVC and AAC 5. 10-bit/12-bit is the color depth of the encoded video. Bit depth : 16 bits. com: New [x265,188,of,307] x86: AVX512 interp_8tap_horiz_ps_32xN for high bit depth: 2018-04-07: mythreyi. 0 will only import their audio tracks (1 per file, ACC), leaving out the x265 video track. However, I suggest your doing so only when your monitors, smart TVs or phone screens, or other display device supports 10-bit or 12-bit color depth. The encodes you’re used to have a precision of 8 bits (256 levels) per color channel. Each depth is a totally independent build of libx265. (Of course that implies 8 bit processing) @lilycarolyn You can either: a. MediaCoder has supported H. B The maximum frame rate supported by HEVC is 300 fps. 0][64 bit] 8bit+10bit+12bit Default : Yes Forced : No Color range : Limited Color primaries : BT. Their quiet life together is shattered when a group of criminals kidnap the girl, forcing the Blind Man to leave his safe haven to save her. Re: [Cin] Test rendering whit x265. Also not forget update to latest x265 commit! 11/Jan/2014: Glad to release IFME 3. Fix: Segmentation fault for hist-scenecut option in 16bpp builds. Bit Depth: 8 bit Writing library: x265 Download: File. For the difficult case, the x265 output averaged 92% of the x264 output but varied quite a bit – in some cases at higher CRFs being larger than the x264 output. Now this is an apples to oranges comparison. BTW: to know the difference between H265 10 bit and H265 12 bit, you can check the explaination of color depth to know more. x265 can encode 10 bit from 8 bit source so it can be used even with vanilla VirtualDub. Voyagers (2021) 2. Haven't experimented too much with 12. 265 encoders. x265 HEVC 8-Bit (color depth) encoded files - PASS. /* x264_bit_depth: * Specifies the number of bits per pixel that x264 uses. 5+10+13-7c9bc0cb14:[Windows][GCC 10. 220: [vo/lavc] Opening encoder. (Of course that implies 8 bit processing) @lilycarolyn You can either: a. This patch fixes segmentation fault and incorrect edge computation due to bit depth mismatch between source input and x265 builds encountered using hist-scene cut option. In order to understand additional details about 8-bit vs. -map 0 will include all streams (default stream selection only selects 1 stream per type). 1 audio all for about 400mb each! Encoded using the time consuming 2 pass, from the blu-ray source, for the highest quality possible. single pass ABR - to enable this mode non-zero bitrate should be specified in the command-line '--bitrate X'. avs4x26x - AviSynth to x265,x264, and x262 piping tool; continued development of avs4x264mod. Now, if I hadn't hardcoded the dithering for the 10-bit encode and instead passed a high-bit-depth picture to x264, it would've resulted in. 220: VO: [lavc] 1280x720 yuv420p10 19:14:41. You need to use x265 as nvenc does not support 12 bit. The video track of the 8-bit encode has 275 MiB, while the 10-bit encode has no more than 152 MiB and doesn’t look worse at all – in fact, it even looks better than the much larger 8-bit encode. x265 8-Bit AAC Multi-Subs [1080p Batch] Anime keyboard_arrow_right Live Action - English-translat Seeders 6. Overall bit rate : 5 408 kb/s Movie name : Private Snafu (1943) S01E02 Gripes (1080p Bluray x265 10bit AC3 2. Daniels patch does indeed build all bitdepths into one library. 026 Stream size : 451 MiB (54%). 10-bit depth support in native utvideo decoder; libutvideo wrapper removed; YUY2 Lossless Codec decoder; VideoToolbox H. Former wrestler Mahavir Singh Phogat (Aamir Khan) trains young daughters Geeta (Fatima Sana Shaikh) and Babita (Sanya Malhotra) to follow in his footsteps and become world-class grapplers. Stream size : 531 MiB (73%). To support this both libraries must be available either as shared libraries or as a pair of static libraries. Movie info: The Blind Man has been hiding out for several years in an isolated cabin and has taken in and raised a young girl orphaned from a devastating house fire. Added native 10-bit pixel depth support; Added color space options yuv420p10, yuv422p10, yuv444p10;. The number of bits used to represent each color determines the range of shades one can generate. Bit rate : 1 651 kb/s Width : 1 920 pixels Height : 1 080 pixels. 100 Video ID : 1 Format : HEVC Format/Info : High Efficiency Video Coding Format profile : [email protected] 2 Just got curious of this x265 HEVC format, and tried it on a 1920x1080i BDMV stream video, one encoded with 8bit depth and then another encoded with 12bit depth. Also not forget update to latest x265 commit! 11/Jan/2014: Glad to release IFME 3. We recently got our hands on a pre-alpha build of. ffmpeg -i input. 5, mostly a result of the completion of weightp and b-pyramid. single pass ABR - to enable this mode non-zero bitrate should be specified in the command-line '--bitrate X'. Anyone else having this issue? I find it weird that 10-Bit works on x264, but not x265. Overall bit rate : 4 423 kb/s. Then you don't need to change the command. 6 GB | Posted on January 22, 2021 January 22, 2021 by DB9 814 Views Release Info Aug 09, 2020 · [kmplx] 009 RE. x264 AVC 8-Bit (color depth) encoded files - PASS. Daniels patch does indeed build all bitdepths into one library. It will shift and mask input pixels as required to reach the internal depth. Overall bit rate : 27. (2011) 1080p Bluray x265 10bit HEVC English Google Drive Windows 10 64 bit, Jumanji Welcome to the Jungle 2017 Bluray Dual Audio [ Hindi DD5. There is also a large amount of new assembly code; replacing most of the compiler intrinsic functions and adding coverage for some new primitives. Direct download via magnet link. x265-iAHD +1. 5× for 4:2:2 profiles and 2× for 4:4:4 profiles. - Enable shared 10/12 bit libraries on 64 bit architectures. Bit depth : 8 bits Bits/(Pixel*Frame) : 0. Writing library : x265 3. Both outputs are 1280x720. On Tuesday, August 3, 2021, Andrew Randrianasulu wrote:. x (libswscale 3. Haven't experimented too much with 12. High Efficiency Video Coding (HEVC), also known as H. (I think the bitdepth should be specified regardless anyway. [x265,190,of,307] x86: AVX512 interp_8tap_vert_sp_32xN for high bit depth: 2018-04-07: [email protected] 026 Stream size : 294 MiB (84%) Writing library : x265 3. Any questions, or help playing this file, click on the HEVC banner just above. Optionally the "high bit-depth" encoder variants can be selected. 265 standard was officially published. Source:True Blood S02 720p BluRay x264-CtrlHD Format : Matroska Format version : Version 4 / Version 2 Overall bit rate : 1 045 Kbps Writing application : Lavf57. 5Mbit, x265 nearly reaches quality transparency when compared to the original, something x264 falls short of, just a bit. Color depth is also known as bit depth, and is the number of bits used to display the color of a single pixel. Unique ID: 240595290391777705168743015960765771869 File: The Sentinel - S01E01 - The Switchman - [DVD][x265 10-bit][AAC 2. 10-bit/12-bit HEVC to 10-bit H. I encoded a 720p video clip in Hi10P at 1Mbps (really low for HD content) and played the encoded content with VLC. Raw still images are files of 12, 14, or 16-bit depth. Bit depth : 10 bits Title : Genmu Senki Leda (Japanese Bluray) Writing library : x265 3. Apr 5 2020. Andrew Randrianasulu via Cin Mon, 02 Aug 2021 14:29:46 -0700. Low values for h like 0. Haven't experimented too much with 12. If downshifting is being performed using our CLI application (to 8 bits), the --dither option may be enabled to reduce banding. If yes, there is how I rip Bluray DVD to 10-bit AND 12-bit MP4 MKV M2TS H264 or H265. In order to understand additional details about 8-bit vs. x264 AVC 8-Bit (color depth) encoded files - PASS. 976 (24000/1001) FPS Color space : YUV Chroma subsampling : 4:2:0 Bit depth : 10 bits Bits/(Pixel*Frame) : 0. The Beginning 루카: 더 비기닝 (2021) WEB-DL. Hi, x264 and x265 performance are perfect (8 bit | 10bit. Any questions, or help playing this file, click on the HEVC banner just above. 64-Bit as well as 32-Bit encoder binaries are fully supported. To support this both libraries must be available either as shared libraries or as a pair of static libraries. /ffmpeg -i /tmp/tools/file_example. x264-JCH Star Trek Complete Collection Star Trek The Next Generation Star Trek The Next Generation Season 3 (1080p x265 10bit Joy) Star Trek. 2+5-gfbe9fef31:[Windows][GCC 9. 1212 on 32-bit and 64-bit PCs. 6 GB | Posted on January 22, 2021 January 22, 2021 by DB9 814 Views Release Info Aug 09, 2020 · [kmplx] 009 RE. This worked with ffmpeg. Let me see if it builds with 10bit support enabled. 679: Audio --aid=1 (*) (aac 2ch 44100Hz) 19:14:41. Title: Bekapon's Bleeding Service Definition: 720p Subtitle: Muxed English Bit Depth: 8 bit Writing library. com: New [x265,188,of,307] x86: AVX512 interp_8tap_horiz_ps_32xN for high bit depth: 2018-04-07: mythreyi. There are usually three color channels, so that makes a bit depth of 24 bits per pixel, which is also the most commonly used bit depth of modern desktop PCs. There is also a large amount of new assembly code; replacing most of the compiler intrinsic functions and adding coverage for some new primitives. org in Khatrimaza Install and launch it. Avs2YUV - Piping tool commonly used to pipe y4m and raw video (including high bit depth) to encoders like x264, x265, and FFmpeg/Libav (among others). There are a few more options in the CMakeLists. x265 HEVC 10-Bit (color depth) encoded files - FAIL. 264 High 10 Profile (10-bit color depth) encoding since quite a long time ago. An example of HEVC 10-bit encoding can also be found in the attached code sample. 026 Stream size : 453 MiB (70%) Title : Encoded by HashMiner!. 018 Stream size : 369 MiB (82%) Writing library : x265 1. 709 Transfer characteristics : BT. I agree with Daniel that this is the best solution - if you want a higher bit depth, it's easily selectable. See full list on gregwessels. The reason HDR standards are 10-bit or higher is because the additional values are needed to prevent the banding which would occur if 8-bit depth was used with an HDR gamma curve. x (libswscale 3. 265 encoders. 264, or MPEG-4 Part 10). - 8bit-depth output (default) download this as the normal version - 10bit-depth output is for professional applications with specialised decoders - 10bit-depth output information links:. from https://encoder. Hi, I managed to succesfully build multi-bit depth x265 using ur build script, x265 [info]: HEVC encoder version 2. Color depth is also known as bit depth, and is the number of bits used to display the color of a single pixel. x265 can encode 10 bit from 8 bit source so it can be used even with vanilla VirtualDub. Re: Transcoding to 10 bit x265. Former wrestler Mahavir Singh Phogat (Aamir Khan) trains young daughters Geeta (Fatima Sana Shaikh) and Babita (Sanya Malhotra) to follow in his footsteps and become world-class grapplers. When set to X265_REF_LIMIT_DEPTH (1) x265 will limit the references analyzed at the. To support this both libraries must be available either as shared libraries or as a pair of static libraries. 026 Stream size : 451 MiB (54%). B The maximum frame rate supported by HEVC is 300 fps. Its main advantages are: High compression ratio. OK my guess is that ffmpeg isn't "smart enough" to use/select the appropriate multiple bit depth x265 unfortunately, let me know if you can figure out if it can or not, until then we'll use the "build two separate exe's" unfortunately I guess. It's a video compression format that was developed and standardized by the ISO/IEC MPEG and ITU-T VCEG. 0][64 bit] 8bit+10bit+12bit x265 [info]: using cpu capabilities: MMX2 SSE2Fast SSSE3 SSE4. 0, for the best quality to file size ratio!. 40:1 Frame rate mode : Constant Frame rate : 23. Please watch before rating or commenting on quality. 976fps) 19:14:38. Raw still images are files of 12, 14, or 16-bit depth. Bits/ (Pixel*Frame) : 0. 028 Stream size : 821 MiB (89%) Writing library : x265 3. 3+17-6e348252e902 x265 [info]: build info [Windows][GCC 6. Low values for h like 0. If you want 8, 10, and 12, then you build the lib three times and make three shared lib files. com Baby Driver (2017) 1080p Bluray 10-bit x265 HEVC DTS 5. 10bit remove posterisation, it's a revolution, it's important to export all your projects in 10bit. Fringe Season 1, in 1080p in x265 aka HEVC and AAC 5. Applications like ffmpeg and the x265 CLI which use our bit-depth introspection API (x265_api_get) instead of the globally exported C interface can select between 8 and 10bit libx265 libraries at runtime. (2019-06-03, 05:21 PM) CSchmidlapp Wrote: I'm trying to encode a high bit rate, 10bit, 422 file in 2K 'Flat' resolution. Size: 11 GB, Files: 34, Age: 2 years. [x265,190,of,307] x86: AVX512 interp_8tap_vert_sp_32xN for high bit depth: 2018-04-07: [email protected] This patch fixes segmentation fault and incorrect edge computation due to bit depth mismatch between source input and x265 builds encountered using hist-scene cut option. x264 AVC 10-Bit (color depth) encoded files - PASS. See FFmpeg Wiki: Map. 053 Stream size : 2. single pass ABR - to enable this mode non-zero bitrate should be specified in the command-line '--bitrate X'. avs4x26x - AviSynth to x265,x264, and x262 piping tool; continued development of avs4x264mod. Every jump in bit depth is a dramatic change in data, so while a 10-bit video may not yet be as good as a raw still, going from 8-bit to 10-bit is huge. Just change “Color Space” option from default I420 to I420 10-bit or I444 10-bit and you are ready. x265 is offered under either version 2 of the GNU General Public License (GPL) or a commercial license, similar to the x264 project. Anime - Dub | 18. 4+424-2b93cf2a5ac8:[Windows][MSVC 1500][32 bit] Encoding settings. If yes, there is how I rip Bluray DVD to 10-bit AND 12-bit MP4 MKV M2TS H264 or H265. When set to X265_REF_LIMIT_DEPTH (1) x265 will limit the references analyzed at the current depth based on the references used to code the 4 sub-blocks at the next depth. There are a few more options in the CMakeLists. 6 GB | Posted on January 22, 2021 January 22, 2021 by DB9 814 Views Release Info Aug 09, 2020 · [kmplx] 009 RE. x265 is the HEVC encoder of choice for many leading video encoder manufacturers and video system operators, providing higher visual quality at any desired bit rate than competing H. You need to use x265 as nvenc does not support 12 bit. Some filters that ship with HandBrake, do not currently support higher than 8-bit. The Beginning 루카: 더 비기닝 (2021) WEB-DL. x265 source code is written in C++ and assembly. There is also a large amount of new assembly code; replacing most of the compiler intrinsic functions and adding coverage for some new primitives. Frame rate : 23. - 8bit-depth output (default) download this as the normal version - 10bit-depth output is for professional applications with specialised decoders - 10bit-depth output information links:. /ffmpeg -i /tmp/tools/file_example. For the Intra profiles the maximum bit rate increases by 2×. 0][64 bit] 10bit. 100 Video ID : 1 Format : HEVC Format/Info : High Efficiency Video Coding Format profile : [email protected] Current systems use 8 bits per color, resulting in 28=256 different shades for each primary color (red, green and blue, respectively). I noticed there somehow weren't many high quality 1080p x265 encodes of this so I made one. MKVToolNix omits x265 Video Stream Importation Hello, I came across some MP4 files that my TV doesn't want to play, so I thought of converting them to MKV to try them again. Color depth is also known as bit depth, and is the number of bits used to display the color of a single pixel. 4K and 3D formats are also available. On 10-bit (Foodmarket) results are even larger. Bit depth : 10 bits Bits/(Pixel*Frame) : 0. 4 x265 [info]: build info [Linux][GCC 7. Any questions, or help playing this file, click on the HEVC banner just above. An example of HEVC 10-bit encoding can also be found in the attached code sample. 679: Audio --aid=1 (*) (aac 2ch 44100Hz) 19:14:41. Download The. Being a precise shooter is always paying off, but there are times when you might need higher bit depth (or "deeper bit depth") files. /* x264_bit_depth: * Specifies the number of bits per pixel that x264 uses. 709 Audio ID : 1 Format : AAC. Added native 10-bit pixel depth support; Added color space options yuv420p10, yuv422p10, yuv444p10;. It will shift and mask input pixels as required to reach the internal depth. 048 Stream size : 1. Star Trek The Next Generation Season 5 (1080p BD x265 10bit FS89 Joy) Star Trek The Next Generation Season 5 Star Trek The Next Generation 1080p x265 dts bluegate Star. 053 Stream size : 2. Currently, all HDR content is 10-bit, with black mapped at the 64 value, middle gray at 512 and peak luminance at 940/960. 5Mbit, x265 nearly reaches quality transparency when compared to the original, something x264 falls short of, just a bit. 709 Transfer characteristics : BT. Raw still images are files of 12, 14, or 16-bit depth. Overall bit rate : 4 423 kb/s. The output file demonstrated a successful conversion to 8bit: If you can try and avoid re-encoding in this manner though, better to. Last month, the HEVC/H. Bit Depth: 8 bit Writing library: x265 Download: File. 220: [vo/lavc] Opening encoder. There were large improvements in compression efficiency since 0. tvEn este video se explica la profundidad de bits, o bit depth. Also not forget update to latest x265 commit! 11/Jan/2014: Glad to release IFME 3. Supported by most Web browsers with a small Javascript decoder (gzipped size: 56 KB). By Chris Angelini July 23, 2013. If this value is > 8, x264 will read * two bytes of input data for each pixel sample, and expect the upper * (16-x264_bit_depth) bits to be zero. Now this is an apples to oranges comparison. 265 encoders. 5+1-f0c1022b6:[Windows][GCC 10. Bit/(pixel*frame) : 0. This is also the * bit depth that x264 encodes in. - Video parameters: Bit depth: 10. x265-DEPTH Encodes in the resolution 1080p from retail (BluRay, HDDVD) sources, with one or more English audio tracks only.